GloDLS.to - Download Movies, TV, Games and Other Torrents Free RSS 2.0enGloDLS.to - Download Movies, TV, Games and Other Torrents FreeGloDLS.to - Download Movies, TV, Games and Other Torrents Free RSS Feedhttp://glodls.toCopyright GloDLS.to - Download Movies, TV, Games and Other Torrents FreeSun, 23 Jul 2017 09:53:41 +0100 MikaelaWitt.17.07.21.Slave.Game.XXX.1080p.MP4-YAPG[N1C] http://glodls.to/torrent.php?id=2644455 http://glodls.to/torrent.php?id=2644455 Sun, 23 Jul 2017 08:53:13 +0100 Adult XXX MikaelaWitt.17.07.21.Slave.Game.XXX.1080p.MP4-YAPG


[Format]: MPEG-4
[Duration]: 9mn 7s
[Resolution]: 1 920 x 1 080 pixels
[Display aspect ratio]: 16:9
[Frame rate mode]: Constant
[Frame rate]: 24.000 fps


[color=green][b]#N1C -> To avoid fakes, ALWAYS check that the torrent was added by NO1CARES[/b][/color]




[color=green][b]Help us by donating with Bitcoin: 1Pgwp16gmLHmPzgjJLxZnMw7YeqiUekUoe[/b][/color]

[b]Screens...[/b]
[url]http://HotImage.uk/img-597463c1bdb63.html[/url]
[url]http://HotImage.uk/img-597463c1d0c7e.html[/url]
[url]http://HotImage.uk/img-597463c1df117.html[/url]
[url]http://HotImage.uk/img-597463c1eb50a.html[/url] ]]>
MikaelaWitt.17.07.21.Slave.Game.XXX.1080p.MP4-YAPG http://glodls.to/torrent.php?id=2644454 http://glodls.to/torrent.php?id=2644454 Sun, 23 Jul 2017 08:51:34 +0100 Adult XXX
{Duration} : 9 min 7 s
{Format} : MPEG-4
{Resolution} : 1920 x 1080 pixels
{Aspect Ratio} : 16:9
{Frame Rate} : 24.000 fps

[b]Thumbnails : -[/b]

[URL=https://www.sizzlingclicks.com/image/8kb0j][IMG]https://www.sizzlingclicks.com/images/2017/07/23/8kb0j.th.jpg[/IMG][/URL]
[b][URL]https://www.sizzlingclicks.com/image/8kb0j[/URL][/b]
[b][URL]https://www.sizzlingclicks.com/image/8kxO8[/URL][/b]
[b][URL]https://www.sizzlingclicks.com/image/8kWTB[/URL][/b]
[b][URL]https://www.sizzlingclicks.com/image/8kvsZ[/URL][/b] ]]>
[MonstersOfCock] Meagan Sage - Monster Cock Spa (23 07 2017) rq mp4 http://glodls.to/torrent.php?id=2644453 http://glodls.to/torrent.php?id=2644453 Sun, 23 Jul 2017 08:50:04 +0100 Adult XXX Audio: aac, 32000 Hz, 2 channels, s16, 46 kb/s (eng)
Video: h264, yuv420p, 852x480, 1506 kb/s, 29,97 fps(r) (eng)

http://www.pixsense.net/site/v/2355507#51&2355507


]]>
[ArenaBG com]-[BangbrosClips] Brandi Love - Brandi s Happy Ending (22 07 2017) rq mp4 http://glodls.to/torrent.php?id=2644452 http://glodls.to/torrent.php?id=2644452 Sun, 23 Jul 2017 08:47:13 +0100 Adult XXX [URL]http://imgtornado.com/img-59745d1c190a4.html[/URL]
[URL=http://imgtornado.com/img-59745d1a69032.html][IMG]http://imgtornado.com/upload/small/2017/07/23/59745d1a68ffd.jpg[/IMG][/URL] ]]>
The.Girl.from.the.Song.2017.BRRip.XviD.AC3-iFT http://glodls.to/torrent.php?id=2644450 http://glodls.to/torrent.php?id=2644450 Sun, 23 Jul 2017 08:45:54 +0100 Movies
[b]ImDb: [URL]http://www.imdb.com/title/tt6336270[/URL][/b]

[url=https://www.sparrowpics.com/image/kbFon][img]https://www.sparrowpics.com/images/2017/07/04/kbFon.png[/img][/url]

[b]Complete name : The.Girl.from.the.Song.2017.BRRip.XviD.AC3-iFT.avi
Format : AVI
Format/Info : Audio Video Interleave
Format profile : OpenDML
Format settings : rec
File size : 1.76 GiB
Duration : 1 h 42 min
Overall bit rate : 2 472 kb/s
Writing application : AVI-Mux GUI 1.17.8.3, Feb 16 201019:42:50

Video
ID : 0
Format : MPEG-4 Visual
Format profile : Advanced Simple@L5
Format settings, BVOP : 2
Format settings, QPel : No
Format settings, GMC : No warppoints
Format settings, Matrix : Default (H.263)
Muxing mode : Packed bitstream
Codec ID : XVID
Codec ID/Hint : XviD
Duration : 1 h 42 min
Bit rate : 2 018 kb/s
Width : 720 pixels
Height : 304 pixels
Display aspect ratio : 2.35:1
Frame rate : 24.000 FPS
Color space : YUV
Chroma subsampling : 4:2:0
Bit depth : 8 bits
Scan type : Progressive
Compression mode : Lossy
Bits/(Pixel*Frame) : 0.384
Stream size : 1.44 GiB (82%)
Writing library : XviD 73

Audio
ID : 1
Format : AC-3
Format/Info : Audio Coding 3
Format settings, Endianness : Big
Codec ID : 2000
Duration : 1 h 42 min
Bit rate mode : Constant
Bit rate : 448 kb/s
Channel(s) : 6 channels
Channel positions : Front: L C R, Side: L R, LFE
Sampling rate : 48.0 kHz
Frame rate : 31.250 FPS (1536 spf)
Bit depth : 16 bits
Compression mode : Lossy
Stream size : 327 MiB (18%)
Alignment : Aligned on interleaves
Interleave, duration : 64 ms (1.54 video frames)
Interleave, preload duration : 192 ms
Title : ac3
Service kind : Complete Main[/b]

[url=https://www.sparrowpics.com/image/kbJ5y][img]https://www.sparrowpics.com/images/2017/07/04/kbJ5y.png[/img][/url]

[URL=https://www.sparrowpics.com/image/mCakd][IMG]https://www.sparrowpics.com/images/2017/07/23/mCakd.th.jpg[/IMG][/URL]

[URL=https://www.sparrowpics.com/image/mCOW1][b]Click To View Screenshot[/b][/URL]

[URL=https://www.sparrowpics.com/image/mCbyH][b]Click To View Screenshot[/b][/URL]

[URL=https://www.sparrowpics.com/image/mC4DT][b]Click To View Screenshot[/b][/URL][/center] ]]>
The.Girl.from.the.Song.2017.BRRip.XviD.AC3-iFT http://glodls.to/torrent.php?id=2644449 http://glodls.to/torrent.php?id=2644449 Sun, 23 Jul 2017 08:45:16 +0100 Movies [color=red][b]
The.Girl.from.the.Song.2017.BRRip.XviD.AC3-iFT

[/b][/color]


IMDb: http://www.imdb.com/title/tt6336270/





[url=https://boltimg.com/image/t52z][img]https://boltimg.com/images/t52z.png[/img][/url]



[color=green][b]
General

(Duration): 1h 42mn
(FileSize): 1.76 GiB



Audio

(Format): AC-3 - Audio Coding 3
(Codec): AC3



Video

(Format): MPEG-4 Visual -
(Media): video/MP4V-ES
(Format): XviD
(Resolution): 720x304 px
(AspectRatio): 2.35:1
(FrameRate): 24.000 fps




[/b][/color]


[url=https://boltimg.com/image/tzTE][img]https://boltimg.com/images/tzTE.png[/img][/url]



[color=purple][b](Click to enlarge)[/b][/color]

[url=https://boltimg.com/image/S3xal][img]https://boltimg.com/images/S3xal.th.jpg[/img][/url] [url=https://boltimg.com/image/S3EOe][img]https://boltimg.com/images/S3EOe.th.jpg[/img][/url] [url=https://boltimg.com/image/S3IHc][img]https://boltimg.com/images/S3IHc.th.jpg[/img][/url] [url=https://boltimg.com/image/S3fX3][img]https://boltimg.com/images/S3fX3.th.jpg[/img][/url] [url=https://boltimg.com/image/S3AUn][img]https://boltimg.com/images/S3AUn.th.jpg[/img][/url] [url=https://boltimg.com/image/S3aPA][img]https://boltimg.com/images/S3aPA.th.jpg[/img][/url]

[/center]
]]>
The.Strawberry.Blonde.1941.DVDRIP.XVID http://glodls.to/torrent.php?id=2644448 http://glodls.to/torrent.php?id=2644448 Sun, 23 Jul 2017 08:45:11 +0100 Movies [color=red][b]
The.Strawberry.Blonde.1941.DVDRIP.XVID

[/b][/color]


IMDb: http://www.imdb.com/title/tt0034236/





[url=https://boltimg.com/image/t52z][img]https://boltimg.com/images/t52z.png[/img][/url]



[color=green][b]
General

(Duration): 1h 38mn
(FileSize): 1 000 MiB



Audio

(Format): MPEG Audio -
(Codec): MPA1L3



Video

(Format): MPEG-4 Visual -
(Media): video/MP4V-ES
(Format): XviD
(Resolution): 640x480 px
(AspectRatio): 4:3
(FrameRate): 23.976 fps




[/b][/color]


[url=https://boltimg.com/image/tzTE][img]https://boltimg.com/images/tzTE.png[/img][/url]



[color=purple][b](Click to enlarge)[/b][/color]

[url=https://boltimg.com/image/SThUE][img]https://boltimg.com/images/SThUE.th.jpg[/img][/url] [url=https://boltimg.com/image/S3LKz][img]https://boltimg.com/images/S3LKz.th.jpg[/img][/url] [url=https://boltimg.com/image/S3UcM][img]https://boltimg.com/images/S3UcM.th.jpg[/img][/url] [url=https://boltimg.com/image/S3Z9Z][img]https://boltimg.com/images/S3Z9Z.th.jpg[/img][/url] [url=https://boltimg.com/image/S367P][img]https://boltimg.com/images/S367P.th.jpg[/img][/url] [url=https://boltimg.com/image/S3YWu][img]https://boltimg.com/images/S3YWu.th.jpg[/img][/url]

[/center]
]]>
Lahore Se Aagey 2016 Pakistani movie HDRIP 720p (Aamir ) http://glodls.to/torrent.php?id=2644447 http://glodls.to/torrent.php?id=2644447 Sun, 23 Jul 2017 08:39:17 +0100 Movies

    [img]https://3.bp.blogspot.com/-bA05Msw4nHI/WG7w2jXH7oI/AAAAAAAAAqU/m1_tM3BCtZYCbw4jN83W8Adxe2AmkVmdACEw/s1600/1.png[/img]
[img]https://image.ibb.co/kdHth5/vlcsnap_2017_07_23_01h30m47s834.png[/img]
[img]https://image.ibb.co/ekfkvQ/vlcsnap_2017_07_23_01h30m59s769.png[/img]
[img]https://image.ibb.co/n3GQvQ/vlcsnap_2017_07_23_01h31m07s643.png[/img]
[img]https://image.ibb.co/k4keN5/vlcsnap_2017_07_23_01h30m44s112.png[/img]
[img]https://image.ibb.co/gvkqUk/vlcsnap_2017_07_23_01h30m56s708.png[/img]
[img]https://image.ibb.co/k8gEpk/vlcsnap_2017_07_23_01h31m13s087.png[/img]
[img]https://image.ibb.co/iOkw25/vlcsnap_2017_07_23_01h31m28s603.png[/img] ]]>
DVD-Cloner Gold - Platinum 2017 14 10 Build 1421 + Patch http://glodls.to/torrent.php?id=2644446 http://glodls.to/torrent.php?id=2644446 Sun, 23 Jul 2017 08:38:40 +0100 Apps
DVD-Cloner Platinum is powerful DVD copy/conversion/burn software. It has all the features of DVD-Cloner plus the ability to convert all your DVD movies to iPod Nano, Classic and Touch. It makes DVD copy or conversion with unparalleled image quality. The inventive SRT supports for copying up-to-date commercial DVD movies with all kinds of DVD encryptions.

DVD-Cloner
DVD-Cloner takes a commanding leadership among the DVD copy software peers with its powerful functions and well-deserved reputation all over the world. Your satisfaction is worth our 15 years’ sincere devotion to our products!

Key features:
Copies up-to-date DVD movies. DVD-Cloner 2017 makes all known DVD protections accessible and removes CSS, Region Code, RCE, UOPs (FBI warnings), APS and Disney X-project DRM, etc. It can also copy DVDs with Sony ARccOS bad sectors deliberately created on the DVD. Enhanced
The inventive SRTprovides you the freedom to copy latest DVD movies much faster.
Movie-only copy Intelligently detects and copies the main movie from the source DVD to avoid copying a fake main movie.
Creates an ISO image at 1:1 ratio from DVD for burning later or burns an existing ISO image file to a DVD disc.
Combines two DVDs to one DVDR DL or combines 6 DVDs to one BD-R/RE (DL).
Combines multiple titles from different DVDs together, and then outputs to the hard disk as ISO files or folders, or burns directly onto blank discs.
Copies Blu-ray movies to the hard disk.

iPod-Cloner
iPod-Cloner is a one-click solution to convert all kinds of DVD to iPod compatible formats. The conversion process is fast and easy.

Key features:
Directly transports DVD files from PC to iPod without iTunes!
Converts DVD to iPod MP4 (MPEG-4), MP3, AAC, M4A formats
Supports the conversion of latest DVD movies
Supports iPod Nano and Classic
Converts DVD movies to iPod Touch/iPhone compatible files
Faster and easier to use. (up to 400%)
iPod Files Manager – Easily transports all the files
Built-in CSS decryption
Removes region codes
Chapter(s) conversion
Supports the adjustment of the aspect ratio
Adds or removes borders

DVD-Cloner Gold is powerful DVD and Blu-ray copy/burn software. It has all the features of DVD-Cloner and Open SmartBurner plus the ability to back up latest Blu-ray movies to the hard disk without any third party plug-in. It can burn data files and video files to a DVD/Blu-ray disc and convert video files with various formats to DVD/Blu-ray movie files. The inventive SRT supports for copying up-to-date commercial DVD movies with all kinds of DVD encryptions.

DVD-Cloner (Blu-ray Pro)
DVD-Cloner (Blu-ray Pro) takes a commanding leadership among the DVD copy software peers with its powerful functions and well-deserved reputation all over the world. Your satisfaction is worth our 15 years’ sincere devotion to our products!

Key features:
Copies up-to-date DVD movies. DVD-Cloner 2017 makes all known DVD protections accessible and removes CSS, Region Code, RCE, UOPs (FBI warnings), APS and Disney X-project DRM, etc. It can also copy DVDs with Sony ARccOS bad sectors deliberately created on the DVD. Enhanced
Backs up latest Blu-ray movies to the hard disk without any third party plug-in.
The inventive SRT provides you the freedom to copy latest DVD movies much faster.
Combines multiple titles from different DVDs together, and then outputs to the hard disk as ISO files or folders, or burns directly onto blank discs.
Combines two DVDs to one DVDR DL or combines 6 DVDs to one BD-R/RE (DL).
Removes annoying contents such as advertising or legal clips from the source DVD movie.
Copies DVD to the hard disk to avoid DVD disc lost and damaged.
Creates an ISO image at 1:1 ratio from DVD for burning later or burns an existing ISO image file to a DVD disc.
Splits a DVD-9 disc into two ISO files or folders in DVD-5 size, or burns each onto a blank DVD-5 disc with 100% quality.
Copies the scratched DVD discs
SmartAnalyzer tool scans the information about the DVD disc and creates a zip file for you to send to our support team when you encounter problems.
Enables you to import the registering key file to register DVD-Cloner(Blu-ray Pro) manually.
Compatible with Windows 10 and Windows 8.1.

Open SmartBurner
Open SmartBurner is a powerful DVD/Blu-ray burn application newly developed by OpenCloner Inc. In addition to video files, it can also burn data files (.doc, .txt, .jpg, .ppt, etc) and audio files to a DVD/Blu-ray disc.

Key features:
Select one from four customized burn modes.
Burns a variety of data files (.doc, .txt, .jpg, .ppt, etc) to a blank DVD/Blu-ray disc.
Burns video files with various formats such as AVI, MP4, FLV, MPG, MKV and MOV to a DVD/Blu-ray video disc.
Converts various video formats to DVD/Blu-ray movie files before burning.
Saves data/video files as an ISO file on the hard disk for burning in the future.
Supports DVD-5, DVD-9, BD-25 and BD-50 target discs.
Shows the title, size, modification time and source path of the data/video files.
Set the DVD format as NTSC or PAL for DVD video burn.
Set the video encoder, video resolution, bitrate and audio encoder for Blu-ray video burn.
Saves the added file(s) as a .cpj file temporarily for future editing when there is much free disc space left.

Release Notes:
1. Copies up-to-date DVD movies.
2. Modified some details to make the user interface more friendly.

System Requirements:
– Pentium-II 450 MHz
– 64MB of RAM
– 5GB free hard disk space for DVD-5 (10GB free hard disk space for DVD-9)
– DVD burners
– Windows XP and higher ]]>
Analized 17 07 23 Keisha Grey Perfect Anal Fuck Toy XXX 480p MP4-TK http://glodls.to/torrent.php?id=2644445 http://glodls.to/torrent.php?id=2644445 Sun, 23 Jul 2017 08:33:24 +0100 Adult XXX
[b]Screenshots:[/b]

[url]http://imgking.co/imgs-59745f565e3ca.html[/url]

[url]http://imgking.co/imgs-59745f565b909.html[/url]

[url]http://imgking.co/imgs-59745f565656d.html[/url]

[url]http://imgking.co/imgs-59745f5464547.html[/url]

File Size : 332 MiB
Duration : 40mn 16s
Video : h264, yuv420p, 854x480p, 1024 Kbps
Audio : aac , 2 ch, stereo , 128 Kbps ]]>
JulesJordan 17 07 23 Abigail Mac XXX 480p MP4-TK http://glodls.to/torrent.php?id=2644444 http://glodls.to/torrent.php?id=2644444 Sun, 23 Jul 2017 08:33:19 +0100 Adult XXX
[b]Screenshots:[/b]

[url]http://imgking.co/imgs-59745f50c7218.html[/url]

[url]http://imgking.co/imgs-59745f50c43da.html[/url]

[url]http://imgking.co/imgs-59745f50bdbda.html[/url]

[url]http://imgking.co/imgs-59745f4f994ff.html[/url]

File Size : 274 MiB
Duration : 33mn 12s
Video : h264, yuv420p, 854x480p, 1024 Kbps
Audio : aac , 2 ch, stereo , 128 Kbps ]]>
DVD-Cloner 2017 14 10 Build 1421 + Patch http://glodls.to/torrent.php?id=2644443 http://glodls.to/torrent.php?id=2644443 Sun, 23 Jul 2017 08:33:10 +0100 Apps
DVD-Cloner takes a commanding leadership among the DVD copy software peers with its powerful functions and well-deserved reputation all over the world. Your satisfaction is worth our 15 years' sincere devotion to our products!

Key features:
• Copies up-to-date DVD movies. DVD-Cloner 2017 makes all known DVD protections accessible and removes CSS, Region Code, RCE, UOPs (FBI warnings), APS and Disney X-project DRM, etc. It can also copy DVDs with Sony ARccOS bad sectors deliberately created on the DVD. Enhanced
• The inventive SRT™ provides you the freedom to copy latest DVD movies much faster.
• Movie-only copy – Intelligently detects and copies the main movie from the source DVD to avoid copying a fake main movie.
• Creates an ISO image at 1:1 ratio from DVD for burning later or burns an existing ISO image file to a DVD disc.
• Combines two DVDs to one DVD±R DL or combines 6 DVDs to one BD-R/RE (DL).
• Combines multiple titles from different DVDs together, and then outputs to the hard disk as ISO files or folders, or burns directly onto blank discs.
• Copies Blu-ray movies to the hard disk.

iPod-Cloner
iPod-Cloner is a one-click solution to convert all kinds of DVD to iPod compatible formats. The conversion process is fast and easy.

Key features:
• Directly transports DVD files from PC to iPod without iTunes!
• Converts DVD to iPod MP4 (MPEG-4), MP3, AAC, M4A formats
• Supports the conversion of latest DVD movies
• Supports iPod Nano and Classic
• Converts DVD movies to iPod Touch/iPhone compatible files
• Faster and easier to use. (up to 400%)
• iPod Files Manager - Easily transports all the files
• Built-in CSS decryption
• Removes region codes
• Chapter(s) conversion
• Supports the adjustment of the aspect ratio
• Adds or removes borders

DVD-Cloner Gold is powerful DVD and Blu-ray copy/burn software. It has all the features of DVD-Cloner and Open SmartBurner plus the ability to back up latest Blu-ray movies to the hard disk without any third party plug-in. It can burn data files and video files to a DVD/Blu-ray disc and convert video files with various formats to DVD/Blu-ray movie files. The inventive SRT™ supports for copying up-to-date commercial DVD movies with all kinds of DVD encryptions.

DVD-Cloner (Blu-ray Pro)
DVD-Cloner (Blu-ray Pro) takes a commanding leadership among the DVD copy software peers with its powerful functions and well-deserved reputation all over the world. Your satisfaction is worth our 15 years' sincere devotion to our products!

Key features:
• Copies up-to-date DVD movies. DVD-Cloner 2017 makes all known DVD protections accessible and removes CSS, Region Code, RCE, UOPs (FBI warnings), APS and Disney X-project DRM, etc. It can also copy DVDs with Sony ARccOS bad sectors deliberately created on the DVD. Enhanced
• Backs up latest Blu-ray movies to the hard disk without any third party plug-in.
• The inventive SRT™ provides you the freedom to copy latest DVD movies much faster.
• Combines multiple titles from different DVDs together, and then outputs to the hard disk as ISO files or folders, or burns directly onto blank discs.
• Combines two DVDs to one DVD±R DL or combines 6 DVDs to one BD-R/RE (DL).
• Removes annoying contents such as advertising or legal clips from the source DVD movie.
• Copies DVD to the hard disk to avoid DVD disc lost and damaged.
• Creates an ISO image at 1:1 ratio from DVD for burning later or burns an existing ISO image file to a DVD disc.
• Splits a DVD-9 disc into two ISO files or folders in DVD-5 size, or burns each onto a blank DVD-5 disc with 100% quality.
• Copies the scratched DVD discs
• SmartAnalyzer tool – scans the information about the DVD disc and creates a zip file for you to send to our support team when you encounter problems.
• Enables you to import the registering key file to register DVD-Cloner(Blu-ray Pro) manually.
• Compatible with Windows 10 and Windows 8.1.

Open SmartBurner
Open SmartBurner is a powerful DVD/Blu-ray burn application newly developed by OpenCloner Inc. In addition to video files, it can also burn data files (.doc, .txt, .jpg, .ppt, etc) and audio files to a DVD/Blu-ray disc.

Key features:
• Select one from four customized burn modes.
• Burns a variety of data files (.doc, .txt, .jpg, .ppt, etc) to a blank DVD/Blu-ray disc.
• Burns video files with various formats such as AVI, MP4, FLV, MPG, MKV and MOV to a DVD/Blu-ray video disc.
• Converts various video formats to DVD/Blu-ray movie files before burning.
• Saves data/video files as an ISO file on the hard disk for burning in the future.
• Supports DVD-5, DVD-9, BD-25 and BD-50 target discs.
• Shows the title, size, modification time and source path of the data/video files.
• Set the DVD format as NTSC or PAL for DVD video burn.
• Set the video encoder, video resolution, bitrate and audio encoder for Blu-ray video burn.
• Saves the added file(s) as a .cpj file temporarily for future editing when there is much free disc space left.

]]>
IHaveAWife 17 07 23 Raven Redmond XXX 480p MP4-TK http://glodls.to/torrent.php?id=2644442 http://glodls.to/torrent.php?id=2644442 Sun, 23 Jul 2017 08:25:47 +0100 Adult XXX
[b]Screenshots:[/b]

[url]http://imgking.co/imgs-59745d8d2abf7.html[/url]

[url]http://imgking.co/imgs-59745d8d27d87.html[/url]

[url]http://imgking.co/imgs-59745d8d21a30.html[/url]

[url]http://imgking.co/imgs-59745d8bbc6cc.html[/url]

File Size : 236 MiB
Duration : 28mn 22s
Video : h264, yuv420p, 854x480p, 1024 Kbps
Audio : aac , 2 ch, stereo , 128 Kbps ]]>
CyberGhost VPN 6 0 6 2540 + Crack http://glodls.to/torrent.php?id=2644441 http://glodls.to/torrent.php?id=2644441 Sun, 23 Jul 2017 08:25:26 +0100 Apps
CyberGhost VPN ensures users with a safe gateway to reach a virtual IP address in another country, in order to bypass geographical restrictions and prevent marketing organizations from gathering personal information to send promotional content.

It’s extremely simple to use, since it can perform this entire task with minimal supervision by resorting to its own optimized parameters to find the fastest alternative route. Meanwhile, advanced users may configure settings regarding the country and IP address, anti-fingerprinting, content blocking, and exceptions.

Automatic settings or custom country and IP address
The simplest way to reach a new IP address is by clicking the power button to let CyberGhost apply automatic settings; it will link the computer to the nearest and fastest address it finds. Otherwise, users may select a different country from a list of available locations and number of total users connected to each one (less is better). A search function is available as well.
Select a preferred country and IP address

When it comes to the new IP address, the software utility may choose one automatically by finding the fastest route, or the users may pick one themselves by examining a list with similar information as for the countries. They should keep in mind that the peer-to-peer protocol (e.g. torrent clients) are blocked on some servers (as indicated in the IP address list) due to legal reasons, while others may be unavailable (depending on the payment plan). The VPN changes are quickly applied to the network connection, and the simulation location may be easily deactivated.

Privacy control and other program settings
To ensure that third-party applications cannot obtain information via cookies, the tool can remove data about the OS and browser version, while online activity can be hidden by changing the browser language to match the new server location. Moreover, it can block requests to tracking websites and remove social networking plugins, which may monitor the surfing behavior to establish a pattern and send advertisements accordingly. Both anti-fingerprinting and content blocking tools can be activated for encrypted HTTPS traffic.

Configure privacy settings and create exceptions
Custom IP addresses can be added to an exception list, in order to continue applying the real server settings for them. Any email settings taken from a desktop client are included in this lift by default. Additionally, users may configure proxy properties to connect to the Internet (SOCKS5 or HTTP), disable force when going through CyberGhost DNS servers, disable IPv6, prefer TCP to UDP connections, use a random port, as well as repair the virtual network card.

The application can be set to start minimized when running at Windows boot or its entry can be removed from the autorun sequence. It can automatically establish a connection at program startup and look into beta versions when checking for software updates. Settings can be saved to file and imported at a later time, as well as reset to default.

..: iNSTALL/REGiSTER NOTES :..

1. Disconnect Internet connection

2. Run app’s setup

3. After installation copy Crack Folder from the cracked folder to the installation directory

4. Block its IneterNet connection with firewall

5. Thanks To Original Uploader*

[img]https://i2.wp.com/www.aspirasisoft.us/wp-content/uploads/2017/03/cyberghost-vpn-606_berhasil.jpg[/img] ]]>
[CuckoldSessions] Ryan Conner (23 07 2017) rq mp4 http://glodls.to/torrent.php?id=2644440 http://glodls.to/torrent.php?id=2644440 Sun, 23 Jul 2017 08:24:04 +0100 Adult XXX Audio: aac, 48000 Hz, 2 channels, s16, 64 kb/s (eng)
Video: h264, yuv420p, 768x432, 1499 kb/s, 59,94 fps(r) (eng)

http://imgclick.net/m9vcqbd63oq1/rc.jpeg.html


]]>
[ArenaBG com]-[Beauty4K] Rebecca Volpetti - Oops, I fucked my step-sister (22 07 2017) rq mp4 http://glodls.to/torrent.php?id=2644439 http://glodls.to/torrent.php?id=2644439 Sun, 23 Jul 2017 08:22:45 +0100 Adult XXX [URL]http://imgtornado.com/img-5974580ca6559.html[/URL]
[URL=http://imgtornado.com/img-5974580b0e60c.html][IMG]http://imgtornado.com/upload/small/2017/07/23/5974580b0e5d7.jpg[/IMG][/URL] ]]>
Avast! Internet Security Premier Antivirus 17 5 2303 + Key http://glodls.to/torrent.php?id=2644438 http://glodls.to/torrent.php?id=2644438 Sun, 23 Jul 2017 08:20:09 +0100 Apps
Our most advanced security suite adds military-grade data shredding and automatic software updates in addition to antivirus, firewall, and Home Network Security. avast! is only the most trusted name in antivirus, actively protecting more than 200 million PCs, Macs and Androids.

Premier: Avast Premier gives you the highest level of security, automation, and support you need and want.
Internet Security: Our best-seller because it offers the protection people need with the performance and flexibility they want.
Pro Antivirus: Gives technical pros additional network and DNS security.

Automatic software updates
Hackers love to exploit old software. Its the weakest link in most peoples security. Avast Premier automates software updating so you dont have to think about it.

Putting you a few steps ahead
Looking for the ultimate? Youre in the right place. In addition to all the features of Internet Security, you are getting advanced security measures keeping your PCs and network even safer.

Yes, your PC can run it
If your PC can run the full version of Windows 8.1, it can run Premier. Period.

New Features :
- HTTPS scanning. Now, we are able to detect and decrypt TLS/SSL protected traffic in our Web-content filtering component. We are using our own generated certificates that are added into the Root Certificate store in Windows and also into major browsers. This feature will protect you against viruses coming through HTTPs traffic as well as adding compatibility for SPDY+HTTPS/ HTTP 2.0 traffic. You can tune/disable this feature in the settings section.
- Home Network Security. Scan your home network for vulnerabilities (wifi status, connected devices, router settings, factory passwords, etc.). This is quite a new approach as we are trying to discover potential problems not isolated on the particular device only, but in the entire network of devices you use or connect to the Internet from.
- SecureDNS (this feature is active in the paid versions only). We are introducing a new provider which guards against unprotected DNS/DNS hijack on a router/client (including unsecured networks, public ones, etc.).
- Smart Scan. Integrated all on demand scans into one (Antivirus, Software updates, Home Network, GrimeFighter). One scan, different results and recommendations.
- New Support System. Easy contact for paid users to submit a ticket with all info included automatically. Improved knowledge base for free users. Help is completely online and is more up to date.
- General bugfixing. This covers a lot of stability and performance changes in all components (but the main focus was traditionally on the network and engine components).
- GrimeFighter Free. GrimeFighter will offer free cleaning of junk files and tuning of system settings. These tasks are performed by our Zilch and Torque minions. Other minion functions remain as paid-for features.
- AVAST NG. A hardware based virtualization solution capable of running each Windows process in standalone safe virtualized environment (VM) and fully integrated to your desktop. Each process is executed in its own instance of VM, which means totally isolated from your other applications. This feature is now powering the Avast DeepScreen, resulting in better detection. The technology will also eventually power the Sandbox and SafeZone components (although it does not now).

Languages: English, Arabic, Belarusian, Bengali, Bulgarian, Catalan, Chinese, Croatian, Czech, Danish
Dutch, Estonian, Finnish, French, German, Hebrew, Hindi, Hungarian, Indonesian, Italian, Japanese, Korean
Latvian, Malay, Norwegian, Persian, Polish, Portuguese (Brazil), Portuguese (Portugal), Romanian, Russian
Serbian, Spanish, Slovak, Slovenian, Swedish, Thai, Turkish, Ukrainian, Urdu, Vietnamese ]]>
Nubiles 17 07 23 Angie Moon Sexy Tease XXX 480p MP4-TK http://glodls.to/torrent.php?id=2644437 http://glodls.to/torrent.php?id=2644437 Sun, 23 Jul 2017 08:16:41 +0100 Adult XXX
[b]Screenshots:[/b]

[url]http://imgking.co/imgs-59745b6b2fe21.html[/url]

[url]http://imgking.co/imgs-59745b6b2ce97.html[/url]

[url]http://imgking.co/imgs-59745b6b264db.html[/url]

[url]http://imgking.co/imgs-59745b68e4a4e.html[/url]

File Size : 175 MiB
Duration : 21mn 10s
Video : h264, yuv420p, 854x480p, 1024 Kbps
Audio : aac , 2 ch, stereo , 128 Kbps ]]>
Auto Hide IP 5 6 4 8 + Patch http://glodls.to/torrent.php?id=2644436 http://glodls.to/torrent.php?id=2644436 Sun, 23 Jul 2017 08:16:04 +0100 Apps
Auto Hide IP – Hide Your IP Address, Surf Anonymously, Protect Your Identity, Guard Against Hackers. Be careful! Have you ever been aware of your IP adress? Your IP exactly points to your location, with very high precision, right to the door of your apartment. Every time you visit a website, your IP address is completely exposed. Auto Hide IP will help you conceal your real IP and protect your identity online. You need not worry about your privacy and security any more. Browse anonymously with one click from now on.

Features :

Anonymous Web Surfing
Assign you fake IP addresses which will make hackers taken in, by this way, your IP could be disguised from online predators.

Protect Your Identity
Hide your real IP when surfing the web to prevent hackers or identity thieves from monitoring your web activity or stealing your personal information such as your financial information.

Choose IP Country
You decide to use fake IP from different countries via “Choose IP Country” option and you can check the current IP directly.

Send Anonymous E-mails
Hide your real IP address in email headers. Be protected in email-sending from Yahoo!, Hotmail and GMail, etc.

Un-ban Yourself from Forums and Message Boards
Use Auto Hide IP to change your IP, then you can get access to any forums or restricted websites that have banned you.

[img]https://i2.wp.com/www.totallyrank.com/wp-content/uploads/2017/07/ip1.jpg[/img] ]]>
If.He.Hollers.Let.Him.Go.1968.DVDRip.x264 http://glodls.to/torrent.php?id=2644435 http://glodls.to/torrent.php?id=2644435 Sun, 23 Jul 2017 08:13:30 +0100 Movies [color=red][b]
If.He.Hollers.Let.Him.Go.1968.DVDRip.x264

[/b][/color]


IMDb: http://www.imdb.com/title/tt0063124/





[url=https://boltimg.com/image/t52z][img]https://boltimg.com/images/t52z.png[/img][/url]



[color=green][b]
General

(Duration): 1h 46mn
(FileSize): 1.33 GiB



Audio

(Format): AC-3 - Audio Coding 3
(Codec): AC3



Video

(Format): AVC - Advanced Video Codec
(Media): video/H264
(Format): x264
(Resolution): 716x480 px
(AspectRatio): 16:9
(FrameRate): 23.976 fps




[/b][/color]


[url=https://boltimg.com/image/tzTE][img]https://boltimg.com/images/tzTE.png[/img][/url]



[color=purple][b](Click to enlarge)[/b][/color]

[url=https://boltimg.com/image/STOVG][img]https://boltimg.com/images/STOVG.th.jpg[/img][/url] [url=https://boltimg.com/image/STj3F][img]https://boltimg.com/images/STj3F.th.jpg[/img][/url] [url=https://boltimg.com/image/STqab][img]https://boltimg.com/images/STqab.th.jpg[/img][/url] [url=https://boltimg.com/image/STN1N][img]https://boltimg.com/images/STN1N.th.jpg[/img][/url] [url=https://boltimg.com/image/STTO7][img]https://boltimg.com/images/STTO7.th.jpg[/img][/url] [url=https://boltimg.com/image/ST9Hf][img]https://boltimg.com/images/ST9Hf.th.jpg[/img][/url]

[/center]
]]>
Drone.2017.720p.BluRay.DTS.x264-iFT http://glodls.to/torrent.php?id=2644434 http://glodls.to/torrent.php?id=2644434 Sun, 23 Jul 2017 08:10:48 +0100 Movies
[b]ImDb: [URL]http://www.imdb.com/title/tt5352846[/URL][/b]

[url=https://www.sparrowpics.com/image/kbFon][img]https://www.sparrowpics.com/images/2017/07/04/kbFon.png[/img][/url]

[b]Complete name : Drone.2017.720p.BluRay.DTS.x264-iFT.mkv
Format : Matroska
Format version : Version 4 / Version 2
File size : 4.82 GiB
Duration : 1 h 29 min
Overall bit rate : 7 699 kb/s
Encoded date : UTC 2017-07-23 07:46:55
Writing application : mkvmerge v8.9.0 ('Father Daughter') 64bit
Writing library : libebml v1.3.3 + libmatroska v1.4.4

Video
ID : 1
Format : AVC
Format/Info : Advanced Video Codec
Format profile : High@L4.1
Format settings, CABAC : Yes
Format settings, ReFrames : 12 frames
Codec ID : V_MPEG4/ISO/AVC
Duration : 1 h 29 min
Bit rate : 6 180 kb/s
Width : 1 280 pixels
Height : 536 pixels
Display aspect ratio : 2.40:1
Frame rate mode : Constant
Frame rate : 23.976 (24000/1001) FPS
Color space : YUV
Chroma subsampling : 4:2:0
Bit depth : 8 bits
Scan type : Progressive
Bits/(Pixel*Frame) : 0.376
Stream size : 3.87 GiB (80%)
Title : Drone.2017.720p.BluRay.DTS.x264-iFT
Writing library : x264 core 142 r2431+42 c69a006 tMod [8-bit@all X86_64]
Encoding settings : cabac=1 / ref=12 / deblock=1:-3:-3 / analyse=0x3:0x133 / me=umh / subme=11 / psy=1 / fade_compensate=0.00 / psy_rd=1.05:0.15 / mixed_ref=1 / me_range=48 / chroma_me=1 / trellis=2 / 8x8dct=1 / cqm=0 / deadzone=21,11 / fast_pskip=1 / chroma_qp_offset=-3 / threads=16 / lookahead_threads=2 / sliced_threads=0 / nr=0 / decimate=0 / interlaced=0 / bluray_compat=0 / constrained_intra=0 / fgo=0 / bframes=8 / b_pyramid=2 / b_adapt=2 / b_bias=0 / direct=3 / weightb=1 / open_gop=0 / weightp=2 / keyint=240 / keyint_min=23 / scenecut=40 / intra_refresh=0 / rc_lookahead=60 / rc=2pass / mbtree=1 / bitrate=6180 / ratetol=1.0 / qcomp=0.70 / qpmin=0:0:0 / qpmax=69:69:69 / qpstep=4 / cplxblur=20.0 / qblur=0.5 / vbv_maxrate=50000 / vbv_bufsize=62500 / nal_hrd=none / filler=0 / ip_ratio=1.30 / aq=1:0.80 / aq-sensitivity=10.00 / aq-factor=1.00:1.00:1.00 / aq2=0 / aq3=0
Default : Yes
Forced : No
Color range : Limited
Color primaries : BT.709
Transfer characteristics : BT.709
Matrix coefficients : BT.709

Audio
ID : 2
Format : DTS
Format/Info : Digital Theater Systems
Mode : 16
Format settings, Endianness : Big
Codec ID : A_DTS
Duration : 1 h 29 min
Bit rate mode : Constant
Bit rate : 1 509 kb/s
Channel(s) : 6 channels
Channel positions : Front: L C R, Side: L R, LFE
Sampling rate : 48.0 kHz
Frame rate : 93.750 FPS (512 spf)
Bit depth : 16 bits
Compression mode : Lossy
Stream size : 967 MiB (20%)
Title : English
Language : English
Default : Yes
Forced : No

Text
ID : 3
Format : PGS
Muxing mode : zlib
Codec ID : S_HDMV/PGS
Codec ID/Info : Picture based subtitle format used on BDs/HD-DVDs
Duration : 1 h 22 min
Bit rate : 12.7 kb/s
Count of elements : 2296
Stream size : 7.47 MiB (0%)
Title : English-PGS
Language : English
Default : Yes
Forced : No

Menu
00:00:00.000 : en:Chapter 01
00:03:55.944 : en:Chapter 03
00:10:40.306 : en:Chapter 05
00:19:25.873 : en:Chapter 07
00:23:25.320 : en:Chapter 09
00:33:03.940 : en:Chapter 11
00:40:15.121 : en:Chapter 13
00:50:32.863 : en:Chapter 15
00:59:38.199 : en:Chapter 17
01:10:28.390 : en:Chapter 19
01:19:30.223 : en:Chapter 21
01:26:26.181 : en:Chapter 23
01:29:36.120 : en:Chapter 24[/b]

[url=https://www.sparrowpics.com/image/kbJ5y][img]https://www.sparrowpics.com/images/2017/07/04/kbJ5y.png[/img][/url]

[URL=https://www.sparrowpics.com/image/mCiqb][IMG]https://www.sparrowpics.com/images/2017/07/23/mCiqb.th.jpg[/IMG][/URL]

[URL=https://www.sparrowpics.com/image/mCAT3][b]Click To View Screenshot[/b][/URL]

[URL=https://www.sparrowpics.com/image/mCdeK][b]Click To View Screenshot[/b][/URL]

[URL=https://www.sparrowpics.com/image/mCpwX][b]Click To View Screenshot[/b][/URL][/center] ]]>
[CherryPimps/WildonCam]Aubrey Sinclair - Loving This Moment LIVE http://glodls.to/torrent.php?id=2644433 http://glodls.to/torrent.php?id=2644433 Sun, 23 Jul 2017 08:09:57 +0100 Adult XXX [size=4]

Aubrey Sinclair - Loving This Moment LIVE
Category: All Sex
File size: 488 MB
Duration: 00:59:45

[b]SCREENS:[/b]

[url=http://imgclick.net/fhjul34l4s1s/Aubrey_Sinclair_v2.jpg.html]http://imgclick.net/fhjul34l4s1s/Aubrey_Sinclair_v2.jpg.html[/url]
[url=https://xeimg.yt/img-597458a18683d.html]https://xeimg.yt/img-597458a18683d.html[/url]


[/size]
[/center]
]]>
Rainbow - Catch the Rainbow - The Anthology (2003) http://glodls.to/torrent.php?id=2644432 http://glodls.to/torrent.php?id=2644432 Sun, 23 Jul 2017 08:08:52 +0100 Music
Short:

Catch the Rainbow: The Anthology is a compilation album 1975-1984.

Tracklist:

CD 1:

1."Man on the Silver Mountain" (Ritchie Blackmore's Rainbow, 1975)
2."Sixteenth Century Greensleeves" (Ritchie Blackmore's Rainbow, 1975)
3."Catch the Rainbow" (Ritchie Blackmore's Rainbow, 1975)
4."Tarot Woman" (Rising, 1976)
5."Starstruck" (Rising, 1976)
6."Stargazer" (Rising, 1976)
7."A Light in the Black" (Rising, 1976)
8."Mistreated" /live/ (On Stage, 1977)
9."Long Live Rock 'n' Roll" (Long Live Rock 'n' Roll, 1978 )
10."Gates of Babylon" (Long Live Rock 'n' Roll, 1978 )
11."Kill the King" (Long Live Rock 'n' Roll, 1978 )
12."Rainbow Eyes" (Long Live Rock 'n' Roll, 1978 )

CD 2:

1."Eyes of the World" (Down to Earth, 1979)
2."Since You Been Gone" (Down to Earth, 1979)
3."All Night Long" (Down to Earth, 1979)
4."Weiss Heim" (B-side of the single "All Night Long", 1980)
5."I Surrender" (Difficult to Cure, 1981)
6."Spotlight Kid" (Difficult to Cure, 1981)
7."Can't Happen Here" (Difficult to Cure, 1981)
8."Jealous Lover" (B-side of the single "Can't Happen Here", 1981)
9."Death Alley Driver" (Straight Between the Eyes, 1982)
10."Stone Cold" (Straight Between the Eyes, 1982)
11."Tearin' Out My Heart" (Straight Between the Eyes, 1982)
12."Power" (Straight Between the Eyes, 1982)
13."Can't Let You Go" (Bent Out of Shape, 1983)
14."Desperate Heart" (Bent Out of Shape, 1983)
15."Street of Dreams" (Bent Out of Shape, 1983)
16."Difficult to Cure" /live/ (Finyl Vinyl, 1984)

***

Quality: Lossy (*.mp3)
Codec: LAME 3.99.5r
Bitrate: CBR 320 Kbps
Channels: Stereo (48 kHz, 16 bits)
Overall time: 02:37:26
Released: 2003
Genre: Hard Rock & Ballads
Release Group: by matesio ]]>
[IHaveAWife] Raven Redmond (23 07 2017) rq (480p) mp4 http://glodls.to/torrent.php?id=2644431 http://glodls.to/torrent.php?id=2644431 Sun, 23 Jul 2017 08:08:52 +0100 Adult XXX Audio: aac, 48000 Hz, 2 channels, s16, 317 kb/s (eng)
Video: h264, yuv420p, 854x480, 1400 kb/s, 23,98 fps(r) (eng)

http://www.pixsense.net/site/v/2355459#51&2355459


]]>
Drone.2017.1080p.BluRay.DTS-HD.MA.5.1.x264-iFT http://glodls.to/torrent.php?id=2644430 http://glodls.to/torrent.php?id=2644430 Sun, 23 Jul 2017 08:07:23 +0100 Movies
[b]ImDb: [URL]http://www.imdb.com/title/tt5352846[/URL][/b]

[url=https://www.sparrowpics.com/image/kbFon][img]https://www.sparrowpics.com/images/2017/07/04/kbFon.png[/img][/url]

[b]Complete name : Drone.2017.1080p.BluRay.DTS-HD.MA.5.1.x264-iFT.mkv
Format : Matroska
Format version : Version 4 / Version 2
File size : 8.45 GiB
Duration : 1 h 29 min
Overall bit rate : 13.5 Mb/s
Encoded date : UTC 2017-07-23 07:30:13
Writing application : mkvmerge v8.9.0 ('Father Daughter') 64bit
Writing library : libebml v1.3.3 + libmatroska v1.4.4

Video
ID : 1
Format : AVC
Format/Info : Advanced Video Codec
Format profile : High@L4.1
Format settings, CABAC : Yes
Format settings, ReFrames : 5 frames
Codec ID : V_MPEG4/ISO/AVC
Duration : 1 h 29 min
Bit rate : 11.5 Mb/s
Width : 1 920 pixels
Height : 804 pixels
Display aspect ratio : 2.40:1
Frame rate mode : Constant
Frame rate : 23.976 (24000/1001) FPS
Color space : YUV
Chroma subsampling : 4:2:0
Bit depth : 8 bits
Scan type : Progressive
Bits/(Pixel*Frame) : 0.311
Stream size : 7.19 GiB (85%)
Title : Drone.2017.1080p.BluRay.DTS-HD.MA.5.1.x264-iFT
Writing library : x264 core 142 r2431+42 c69a006 tMod [8-bit@all X86_64]
Encoding settings : cabac=1 / ref=5 / deblock=1:-3:-3 / analyse=0x3:0x133 / me=umh / subme=11 / psy=1 / fade_compensate=0.00 / psy_rd=1.05:0.15 / mixed_ref=1 / me_range=48 / chroma_me=1 / trellis=2 / 8x8dct=1 / cqm=0 / deadzone=21,11 / fast_pskip=1 / chroma_qp_offset=-3 / threads=16 / lookahead_threads=4 / sliced_threads=0 / nr=0 / decimate=0 / interlaced=0 / bluray_compat=0 / constrained_intra=0 / fgo=0 / bframes=10 / b_pyramid=2 / b_adapt=2 / b_bias=0 / direct=3 / weightb=1 / open_gop=0 / weightp=2 / keyint=240 / keyint_min=23 / scenecut=40 / intra_refresh=0 / rc_lookahead=60 / rc=2pass / mbtree=1 / bitrate=11500 / ratetol=1.0 / qcomp=0.70 / qpmin=0:0:0 / qpmax=69:69:69 / qpstep=4 / cplxblur=20.0 / qblur=0.5 / vbv_maxrate=50000 / vbv_bufsize=62500 / nal_hrd=none / filler=0 / ip_ratio=1.30 / aq=1:0.80 / aq-sensitivity=10.00 / aq-factor=1.00:1.00:1.00 / aq2=0 / aq3=0
Default : Yes
Forced : No
Color range : Limited
Color primaries : BT.709
Transfer characteristics : BT.709
Matrix coefficients : BT.709

Audio
ID : 2
Format : DTS
Format/Info : Digital Theater Systems
Format profile : MA / Core
Mode : 16
Format settings, Endianness : Big
Codec ID : A_DTS
Duration : 1 h 29 min
Bit rate mode : Variable / Constant
Bit rate : 1 999 kb/s / 1 509 kb/s
Channel(s) : 6 channels
Channel positions : Front: L C R, Side: L R, LFE
Sampling rate : 48.0 kHz
Frame rate : 93.750 FPS (512 spf)
Bit depth : 16 bits
Compression mode : Lossless / Lossy
Stream size : 1.25 GiB (15%)
Title : English
Language : English
Default : Yes
Forced : No

Text
ID : 3
Format : PGS
Muxing mode : zlib
Codec ID : S_HDMV/PGS
Codec ID/Info : Picture based subtitle format used on BDs/HD-DVDs
Duration : 1 h 22 min
Bit rate : 12.7 kb/s
Count of elements : 2296
Stream size : 7.47 MiB (0%)
Title : English-PGS
Language : English
Default : Yes
Forced : No

Menu
00:00:00.000 : en:Chapter 01
00:03:55.944 : en:Chapter 03
00:10:40.306 : en:Chapter 05
00:19:25.873 : en:Chapter 07
00:23:25.320 : en:Chapter 09
00:33:03.940 : en:Chapter 11
00:40:15.121 : en:Chapter 13
00:50:32.863 : en:Chapter 15
00:59:38.199 : en:Chapter 17
01:10:28.390 : en:Chapter 19
01:19:30.223 : en:Chapter 21
01:26:26.181 : en:Chapter 23
01:29:36.120 : en:Chapter 24[/b]

[url=https://www.sparrowpics.com/image/kbJ5y][img]https://www.sparrowpics.com/images/2017/07/04/kbJ5y.png[/img][/url]

[URL=https://www.sparrowpics.com/image/mCYRt][IMG]https://www.sparrowpics.com/images/2017/07/23/mCYRt.th.jpg[/IMG][/URL]

[URL=https://www.sparrowpics.com/image/mCobZ][b]Click To View Screenshot[/b][/URL]

[URL=https://www.sparrowpics.com/image/mCsKx][b]Click To View Screenshot[/b][/URL]

[URL=https://www.sparrowpics.com/image/mCZUN][b]Click To View Screenshot[/b][/URL][/center] ]]>
Anilos 17 07 23 Liya Lucky Showing Off Her Pussy XXX 480p MP4-TK http://glodls.to/torrent.php?id=2644429 http://glodls.to/torrent.php?id=2644429 Sun, 23 Jul 2017 08:04:23 +0100 Adult XXX
[b]Screenshots:[/b]

[url]http://imgking.co/imgs-59745888abe94.html[/url]

[url]http://imgking.co/imgs-59745888a8de2.html[/url]

[url]http://imgking.co/imgs-59745888a5c5a.html[/url]

[url]http://imgking.co/imgs-597458866b230.html[/url]

File Size : 138 MiB
Duration : 16mn 41s
Video : h264, yuv420p, 854x480p, 1024 Kbps
Audio : aac , 2 ch, stereo , 128 Kbps ]]>
XXXShades 17 07 23 Angel Piaff XXX 480p MP4-TK http://glodls.to/torrent.php?id=2644428 http://glodls.to/torrent.php?id=2644428 Sun, 23 Jul 2017 08:02:45 +0100 Adult XXX
[b]Screenshots:[/b]

[url]http://imgking.co/imgs-597458269ccc0.html[/url]

[url]http://imgking.co/imgs-597458269a1b0.html[/url]

[url]http://imgking.co/imgs-5974582694261.html[/url]

[url]http://imgking.co/imgs-597458253b5ad.html[/url]

File Size : 165 MiB
Duration : 20mn 24s
Video : h264, yuv420p, 854x480p, 1024 Kbps
Audio : aac , 2 ch, stereo , 128 Kbps ]]>
[XXXShades] Sexy Czech babe Angel Piaff gets cum covered in hot fuck with porn addict (23 07 2017) rq mp4 http://glodls.to/torrent.php?id=2644427 http://glodls.to/torrent.php?id=2644427 Sun, 23 Jul 2017 08:02:34 +0100 Adult XXX Audio: aac, 44100 Hz, stereo, s16, 128 kb/s (eng)
Video: h264, yuv420p, 854x480, 1998 kb/s, 29,97 fps(r) (eng)

https://imgadult.com/img-597457d806857.html

]]>
Adobe Photoshop Lightroom CC 6 12 + Patch http://glodls.to/torrent.php?id=2644425 http://glodls.to/torrent.php?id=2644425 Sun, 23 Jul 2017 08:01:42 +0100 Apps
Adobe Photoshop Lightroom CC – Capture the full range of light. Create amazing images from challenging high-contrast scenes. New HDR Merge lets you combine multiple photos taken with different exposure settings into a single high dynamic range image.
It allows viewing, organizing and retouching large numbers of digital images. Lightroom’s edits are non-destructive.

Features :

 HDR images made easy
 Create natural-looking or surreal images from extremely high-contrast scenes. Using HDR Merge, you can easily combine multiple shots taken with different exposure settings into a single high dynamic range image.
 Stunning panoramas
 Capture superwide fields of view and amazing detail. Photomerge technology lets you stitch together multiple images, including raw files, to create seamless panoramas.
 Faster performance
 Import and perfect your photos faster than ever. Lightroom takes advantage of compatible graphics processors to boost its overall speed, especially when you’re enhancing images in the Develop module.
 Facial recognition
 Quickly find images of family and friends, even without metadata tags. Select a face in one photo, and Lightroom searches for that person in all your other images. Categorize and group your photos based on faces.
 Advanced video slide shows
 Create beautiful, polished slide shows using still images, video and music along with professional effects like pan and zoom.
 Improved web galleries
 Showcase your work in more elegant, engaging and interactive web galleries. New HTML5-compatible gallery templates work with the widest range of desktop and mobile browsers.

[img]https://i2.wp.com/cracksnow.com/wp-content/uploads/2017/04/Screen-Shot-2013-04-12-at-5.17.52-PM.png[/img] ]]>
[ArenaBG com]-[BrazzersExxtra] Madison Ivy - Return Of Ivy (23 07 2017) rq (720p) mp4 http://glodls.to/torrent.php?id=2644396 http://glodls.to/torrent.php?id=2644396 Sun, 23 Jul 2017 08:00:51 +0100 Adult XXX [URL]http://imgtornado.com/img-597454177520f.html[/URL]
[URL=http://imgtornado.com/img-597454150bf4d.html][IMG]http://imgtornado.com/upload/small/2017/07/23/597454150bf17.jpg[/IMG][/URL] ]]>
Big Latina Tits 10[Culioneros]**Split Scenes** http://glodls.to/torrent.php?id=2644373 http://glodls.to/torrent.php?id=2644373 Sun, 23 Jul 2017 07:59:55 +0100 Adult XXX
[center][URL=http://imageteam.org/img-5974535a12301.html][IMG]http://imageteam.org/upload/small/2017/07/23/5974535a122c8.jpg[/IMG][/URL]
[size=4]

Stars: Jasmine Black, Cindy Dollar, Alice Romain, Domino, Sheila Grant, Rye
Category: Big Boobs, Gonzo, Latin
File size: 1.83 GB
Duration: 02:46:40

[b]SCREENS:[/b]

[url]http://imageteam.org/img-597453956da4f.html[/url]
[url]http://damimage.com/img-597453a8e7312.html[/url]
[url]http://imagedecode.com/img-597453d362c43.html[/url]
[url]https://img.yt/img-597453f1ab644.html[/url]

[/size]
[/center] ]]>
[ATKGirlfriends] Moka Mora - In reverse cowgirl you fuck her pussy and asshole (23 07 2017) rq mp4 http://glodls.to/torrent.php?id=2644371 http://glodls.to/torrent.php?id=2644371 Sun, 23 Jul 2017 07:57:54 +0100 Adult XXX Audio: aac, 48000 Hz, stereo, s16, 128 kb/s (und)
Video: h264, yuv420p, 852x480, 2443 kb/s, 29,97 fps(r) (und)

https://imgwallet.com/img-597456c5eefc6.html

]]>
WildOnCam 15 12 23 Abby Lee Brazil XXX 480p MP4-TK http://glodls.to/torrent.php?id=2644369 http://glodls.to/torrent.php?id=2644369 Sun, 23 Jul 2017 07:56:05 +0100 Adult XXX
[b]Screenshots:[/b]

[url]http://imgking.co/imgs-597456977e8ff.html[/url]

[url]http://imgking.co/imgs-597456977b8a6.html[/url]

[url]http://imgking.co/imgs-5974569772698.html[/url]

[url]http://imgking.co/imgs-597456960324d.html[/url]

File Size : 482 MiB
Duration : 58mn 42s
Video : h264, yuv420p, 854x480p, 1024 Kbps
Audio : aac , 2 ch, stereo , 128 Kbps ]]>
WildOnCam 15 12 24 Dillion Harper XXX 480p MP4-TK http://glodls.to/torrent.php?id=2644367 http://glodls.to/torrent.php?id=2644367 Sun, 23 Jul 2017 07:55:36 +0100 Adult XXX
[b]Screenshots:[/b]

[url]http://imgking.co/imgs-5974567a2c59a.html[/url]

[url]http://imgking.co/imgs-5974567a29893.html[/url]

[url]http://imgking.co/imgs-5974567a2414f.html[/url]

[url]http://imgking.co/imgs-59745671a0349.html[/url]

File Size : 482 MiB
Duration : 58mn 49s
Video : h264, yuv420p, 854x480p, 1024 Kbps
Audio : aac , 2 ch, stereo , 128 Kbps ]]>
CuckoldSessions.17.07.23.Ryan.Conner.XXX.1080p.MP4-KTR http://glodls.to/torrent.php?id=2644365 http://glodls.to/torrent.php?id=2644365 Sun, 23 Jul 2017 07:54:41 +0100 Adult XXX
{Duration} : 29 min 30 s
{Format} : MPEG-4
{Resolution} : 1920 x 1080 pixels
{Aspect Ratio} : 16:9
{Frame Rate} : 59.940 fps

[b]Thumbnails : -[/b]

[URL=https://www.sizzlingclicks.com/image/8kdDJ][IMG]https://www.sizzlingclicks.com/images/2017/07/23/8kdDJ.th.jpg[/IMG][/URL]
[b][URL]https://www.sizzlingclicks.com/image/8kdDJ[/URL][/b]
[b][URL]https://www.sizzlingclicks.com/image/8kKAY[/URL][/b]
[b][URL]https://www.sizzlingclicks.com/image/8kNHA[/URL][/b]
[b][URL]https://www.sizzlingclicks.com/image/8kBQW[/URL][/b] ]]>
[SexArt] Melody - Corner (23 07 2017) rq mp4 http://glodls.to/torrent.php?id=2644363 http://glodls.to/torrent.php?id=2644363 Sun, 23 Jul 2017 07:53:38 +0100 Adult XXX Audio: aac, 44100 Hz, 2 channels, s16, 107 kb/s (und)
Video: h264, yuv420p, 640x360, 1473 kb/s, 25,00 fps(r) (und)

http://imgjazz.com/img-597455f0baee2.html

]]>
CuckoldSessions.17.07.23.Ryan.Conner.XXX.1080p.MP4-KTR[N1C] http://glodls.to/torrent.php?id=2644362 http://glodls.to/torrent.php?id=2644362 Sun, 23 Jul 2017 07:53:14 +0100 Adult XXX CuckoldSessions.17.07.23.Ryan.Conner.XXX.1080p.MP4-KTR


[Format]: MPEG-4
[Duration]: 29mn 30s
[Resolution]: 1 920 x 1 080 pixels
[Display aspect ratio]: 16:9
[Frame rate mode]: Constant
[Frame rate]: 59.940 fps


[color=green][b]#N1C -> To avoid fakes, ALWAYS check that the torrent was added by NO1CARES[/b][/color]




[color=green][b]Help us by donating with Bitcoin: 1Pgwp16gmLHmPzgjJLxZnMw7YeqiUekUoe[/b][/color]

[b]Screens...[/b]
[url]http://HotImage.uk/img-597455bef3ec6.html[/url]
[url]http://HotImage.uk/img-597455bf14609.html[/url]
[url]http://HotImage.uk/img-597455bf2353d.html[/url]
[url]http://HotImage.uk/img-597455bf2fbfb.html[/url] ]]>
[LegalPorno] Sophia Laure fisting herself to prepare for her first triple anal (TAP DAP DP) SZ1817 (23 07 2017) rq mp4 http://glodls.to/torrent.php?id=2644361 http://glodls.to/torrent.php?id=2644361 Sun, 23 Jul 2017 07:50:20 +0100 Adult XXX Audio: aac, 44100 Hz, stereo, s16, 135 kb/s (und)
Video: h264, yuv420p, 848x480, 2502 kb/s, 50,00 fps(r) (und)

https://imgtaxi.com/img-59745500350cf.html

]]>
SexArt 17 07 23 Melody Corner XXX 480p MP4-TK http://glodls.to/torrent.php?id=2644360 http://glodls.to/torrent.php?id=2644360 Sun, 23 Jul 2017 07:48:05 +0100 Adult XXX
[b]Screenshots:[/b]

[url]http://imgking.co/imgs-597454b6cd9cf.html[/url]

[url]http://imgking.co/imgs-597454b6cae9b.html[/url]

[url]http://imgking.co/imgs-597454b6c8321.html[/url]

[url]http://imgking.co/imgs-597454a5813dd.html[/url]

File Size : 137 MiB
Duration : 16mn 55s
Video : h264, yuv420p, 854x480p, 1024 Kbps
Audio : aac , 2 ch, stereo , 128 Kbps ]]>
[LegalPorno] 7on1 BBC GangBang, Kira Thorn gets her dream only black guys and only in the ass GIO417 (23 07 2017) rq mp4 http://glodls.to/torrent.php?id=2644359 http://glodls.to/torrent.php?id=2644359 Sun, 23 Jul 2017 07:47:39 +0100 Adult XXX Audio: aac, 44100 Hz, stereo, s16, 153 kb/s (und)
Video: h264, yuv420p, 848x480, 2488 kb/s, 29,97 fps(r) (und)

https://imgdrive.net/img-59745455e8db0.html

]]>
[ArenaBG com]-[SneakySex] Riley Star - Wet Hot American Stunner (22 07 2017) rq mp4 http://glodls.to/torrent.php?id=2644358 http://glodls.to/torrent.php?id=2644358 Sun, 23 Jul 2017 07:43:19 +0100 Adult XXX [URL]http://imgtornado.com/img-5974517f7cfca.html[/URL]
[URL=http://imgtornado.com/img-5974517f7cfca.html][IMG]http://imgtornado.com/upload/small/2017/07/23/5974517f7cf95.jpg[/IMG][/URL] ]]>
WildOnCam 15 12 22 Alyssa Lynn XXX 480p MP4-TK http://glodls.to/torrent.php?id=2644357 http://glodls.to/torrent.php?id=2644357 Sun, 23 Jul 2017 07:43:07 +0100 Adult XXX
[b]Screenshots:[/b]

[url]http://imgking.co/imgs-5974538cc0773.html[/url]

[url]http://imgking.co/imgs-5974538cbdb1a.html[/url]

[url]http://imgking.co/imgs-5974538cbad90.html[/url]

[url]http://imgking.co/imgs-5974536fa8c86.html[/url]

File Size : 487 MiB
Duration : 59mn 9s
Video : h264, yuv420p, 854x480p, 1024 Kbps
Audio : aac , 2 ch, stereo , 128 Kbps ]]>
[Analized] Keisha Grey Perfect Anal Fuck Toy (23 07 2017) rq mp4 http://glodls.to/torrent.php?id=2644356 http://glodls.to/torrent.php?id=2644356 Sun, 23 Jul 2017 07:42:59 +0100 Adult XXX Audio: aac, 44100 Hz, stereo, s16, 130 kb/s (eng)
Video: h264, yuv420p, 854x480, 2990 kb/s, 30,00 fps(r) (eng)

https://img.yt/img-5974536f60283.html


]]>
MetArt 17 07 23 Amelie B Weekend XXX 480p MP4-TK http://glodls.to/torrent.php?id=2644355 http://glodls.to/torrent.php?id=2644355 Sun, 23 Jul 2017 07:42:28 +0100 Adult XXX
[b]Screenshots:[/b]

[url]http://imgking.co/imgs-5974536635c44.html[/url]

[url]http://imgking.co/imgs-59745366316bb.html[/url]

[url]http://imgking.co/imgs-597453662cedb.html[/url]

[url]http://imgking.co/imgs-5974535167934.html[/url]

File Size : 87.7 MiB
Duration : 10mn 48s
Video : h264, yuv420p, 854x480p, 1024 Kbps
Audio : aac , 2 ch, stereo , 128 Kbps ]]>
TheLifeErotic 17 07 23 Michelle H My Limits XXX 480p MP4-TK http://glodls.to/torrent.php?id=2644354 http://glodls.to/torrent.php?id=2644354 Sun, 23 Jul 2017 07:42:05 +0100 Adult XXX
[b]Screenshots:[/b]

[url]http://imgking.co/imgs-5974534f4694e.html[/url]

[url]http://imgking.co/imgs-5974534f43a26.html[/url]

[url]http://imgking.co/imgs-5974534f3e622.html[/url]

[url]http://imgking.co/imgs-59745335e886b.html[/url]

File Size : 100 MiB
Duration : 12mn 26s
Video : h264, yuv420p, 854x480p, 1024 Kbps
Audio : aac , 2 ch, stereo , 128 Kbps ]]>
TheWhiteBoxxx 17 07 23 Nancy A XXX 480p MP4-TK http://glodls.to/torrent.php?id=2644353 http://glodls.to/torrent.php?id=2644353 Sun, 23 Jul 2017 07:40:41 +0100 Adult XXX [b]Screenshots:[/b]

[url]http://imgking.co/imgs-597452b3de536.html[/url]

File Size : 74.0 MiB
Duration : 9mn 4s
Video : h264, yuv420p, 854x480p, 1024 Kbps
Audio : aac , 2 ch, stereo , 128 Kbps ]]>
Worlds.Deadliest.Drivers.S01E03.HDTV.x264-NORiTE http://glodls.to/torrent.php?id=2644352 http://glodls.to/torrent.php?id=2644352 Sun, 23 Jul 2017 07:38:55 +0100 TV
[url=https://www.sparrowpics.com/image/kbFon][img]https://www.sparrowpics.com/images/2017/07/04/kbFon.png[/img][/url]

[b]Complete name : worlds.deadliest.drivers.s01e03.hdtv-norite.mkv
Format : Matroska
Format version : Version 4 / Version 2
File size : 157 MiB
Duration : 24 min 57 s
Overall bit rate : 881 kb/s
Encoded date : UTC 2017-07-22 10:42:27
Writing application : mkvmerge v9.6.0 ('Slave To Your Mind') 64bit
Writing library : libebml v1.3.4 + libmatroska v1.4.5

Video
ID : 1
Format : AVC
Format/Info : Advanced Video Codec
Format profile : High@L3.1
Format settings, CABAC : Yes
Format settings, ReFrames : 5 frames
Codec ID : V_MPEG4/ISO/AVC
Duration : 24 min 57 s
Bit rate : 752 kb/s
Width : 720 pixels
Height : 404 pixels
Display aspect ratio : 16:9
Frame rate mode : Constant
Frame rate : 50.000 FPS
Color space : YUV
Chroma subsampling : 4:2:0
Bit depth : 8 bits
Scan type : Progressive
Bits/(Pixel*Frame) : 0.052
Stream size : 134 MiB (85%)
Writing library : x264 core 152 r2851 ba24899
Encoding settings : cabac=1 / ref=5 / deblock=1:0:0 / analyse=0x3:0x113 / me=hex / subme=8 / psy=1 / psy_rd=1.00:0.00 / mixed_ref=1 / me_range=16 / chroma_me=1 / trellis=2 / 8x8dct=1 / cqm=0 / deadzone=21,11 / fast_pskip=1 / chroma_qp_offset=-2 / threads=4 / lookahead_threads=1 / sliced_threads=0 / nr=0 / decimate=1 / interlaced=0 / bluray_compat=0 / stitchable=1 / constrained_intra=0 / bframes=3 / b_pyramid=2 / b_adapt=1 / b_bias=0 / direct=3 / weightb=1 / open_gop=0 / weightp=2 / keyint=250 / keyint_min=25 / scenecut=40 / intra_refresh=0 / rc_lookahead=50 / rc=crf / mbtree=1 / crf=22.0 / qcomp=0.60 / qpmin=0 / qpmax=69 / qpstep=4 / ip_ratio=1.40 / aq=1:1.00
Default : Yes
Forced : No
Color range : Limited
Color primaries : BT.709
Transfer characteristics : BT.709
Matrix coefficients : BT.709

Audio
ID : 2
Format : AAC
Format/Info : Advanced Audio Codec
Format profile : LC
Codec ID : A_AAC
Duration : 24 min 56 s
Bit rate : 125 kb/s
Channel(s) : 2 channels
Channel positions : Front: L R
Sampling rate : 48.0 kHz
Frame rate : 46.875 FPS (1024 spf)
Compression mode : Lossy
Stream size : 22.4 MiB (14%)
Default : Yes
Forced : No[/b]

[url=https://www.sparrowpics.com/image/kbJ5y][img]https://www.sparrowpics.com/images/2017/07/04/kbJ5y.png[/img][/url]

[URL=https://tv.sparrowpics.com/image/HgZGm][IMG]https://tv.sparrowpics.com/images/2017/07/23/HgZGm.th.jpg[/IMG][/URL]

[URL=https://tv.sparrowpics.com/image/HgjoF][b]Click To View Screenshot[/b][/URL]

[URL=https://tv.sparrowpics.com/image/HgenA][b]Click To View Screenshot[/b][/URL]

[URL=https://tv.sparrowpics.com/image/HguT2][b]Click To View Screenshot[/b][/URL][/center] ]]>
Worlds.Deadliest.Drivers.S01E03.720p.HDTV.x264-NORiTE http://glodls.to/torrent.php?id=2644351 http://glodls.to/torrent.php?id=2644351 Sun, 23 Jul 2017 07:38:52 +0100 TV
[url=https://www.sparrowpics.com/image/kbFon][img]https://www.sparrowpics.com/images/2017/07/04/kbFon.png[/img][/url]

[b]Complete name : worlds.deadliest.drivers.s01e03.720p.hdtv-norite.mkv
Format : Matroska
Format version : Version 4 / Version 2
File size : 469 MiB
Duration : 24 min 57 s
Overall bit rate : 2 629 kb/s
Encoded date : UTC 2017-07-22 12:54:13
Writing application : mkvmerge v9.6.0 ('Slave To Your Mind') 64bit
Writing library : libebml v1.3.4 + libmatroska v1.4.5

Video
ID : 1
Format : AVC
Format/Info : Advanced Video Codec
Format profile : High@L4.1
Format settings, CABAC : Yes
Format settings, ReFrames : 5 frames
Codec ID : V_MPEG4/ISO/AVC
Duration : 24 min 57 s
Bit rate : 2 177 kb/s
Width : 1 280 pixels
Height : 720 pixels
Display aspect ratio : 16:9
Frame rate mode : Constant
Frame rate : 50.000 FPS
Color space : YUV
Chroma subsampling : 4:2:0
Bit depth : 8 bits
Scan type : Progressive
Bits/(Pixel*Frame) : 0.047
Stream size : 389 MiB (83%)
Writing library : x264 core 152 r2851 ba24899
Encoding settings : cabac=1 / ref=5 / deblock=1:0:0 / analyse=0x3:0x113 / me=hex / subme=8 / psy=1 / psy_rd=1.00:0.00 / mixed_ref=1 / me_range=16 / chroma_me=1 / trellis=2 / 8x8dct=1 / cqm=0 / deadzone=21,11 / fast_pskip=1 / chroma_qp_offset=-2 / threads=4 / lookahead_threads=1 / sliced_threads=0 / nr=0 / decimate=1 / interlaced=0 / bluray_compat=0 / stitchable=1 / constrained_intra=0 / bframes=3 / b_pyramid=2 / b_adapt=1 / b_bias=0 / direct=3 / weightb=1 / open_gop=0 / weightp=2 / keyint=250 / keyint_min=25 / scenecut=40 / intra_refresh=0 / rc_lookahead=50 / rc=crf / mbtree=1 / crf=21.0 / qcomp=0.60 / qpmin=0 / qpmax=69 / qpstep=4 / ip_ratio=1.40 / aq=1:1.00
Default : Yes
Forced : No
Color range : Limited
Color primaries : BT.709
Transfer characteristics : BT.709
Matrix coefficients : BT.709

Audio
ID : 2
Format : AC-3
Format/Info : Audio Coding 3
Format settings, Endianness : Big
Codec ID : A_AC3
Duration : 24 min 57 s
Bit rate mode : Constant
Bit rate : 448 kb/s
Channel(s) : 2 channels
Channel positions : Front: L R
Sampling rate : 48.0 kHz
Frame rate : 31.250 FPS (1536 spf)
Bit depth : 16 bits
Compression mode : Lossy
Stream size : 80.0 MiB (17%)
Service kind : Complete Main
Default : Yes
Forced : No[/b]

[url=https://www.sparrowpics.com/image/kbJ5y][img]https://www.sparrowpics.com/images/2017/07/04/kbJ5y.png[/img][/url]

[URL=https://tv.sparrowpics.com/image/HqoU4][IMG]https://tv.sparrowpics.com/images/2017/07/23/HqoU4.th.jpg[/IMG][/URL]

[URL=https://tv.sparrowpics.com/image/HqrOd][b]Click To View Screenshot[/b][/URL]

[URL=https://tv.sparrowpics.com/image/HqtMs][b]Click To View Screenshot[/b][/URL]

[URL=https://tv.sparrowpics.com/image/HqSrK][b]Click To View Screenshot[/b][/URL][/center] ]]>
Worlds.Deadliest.Drivers.S01E02.HDTV.x264-NORiTE http://glodls.to/torrent.php?id=2644350 http://glodls.to/torrent.php?id=2644350 Sun, 23 Jul 2017 07:38:48 +0100 TV
[url=https://www.sparrowpics.com/image/kbFon][img]https://www.sparrowpics.com/images/2017/07/04/kbFon.png[/img][/url]

[b]Complete name : worlds.deadliest.drivers.s01e02.hdtv-norite.mkv
Format : Matroska
Format version : Version 4 / Version 2
File size : 165 MiB
Duration : 26 min 1 s
Overall bit rate : 886 kb/s
Encoded date : UTC 2017-07-22 11:07:32
Writing application : mkvmerge v9.6.0 ('Slave To Your Mind') 64bit
Writing library : libebml v1.3.4 + libmatroska v1.4.5

Video
ID : 1
Format : AVC
Format/Info : Advanced Video Codec
Format profile : High@L3.1
Format settings, CABAC : Yes
Format settings, ReFrames : 5 frames
Codec ID : V_MPEG4/ISO/AVC
Duration : 26 min 1 s
Bit rate : 757 kb/s
Width : 720 pixels
Height : 404 pixels
Display aspect ratio : 16:9
Frame rate mode : Constant
Frame rate : 50.000 FPS
Color space : YUV
Chroma subsampling : 4:2:0
Bit depth : 8 bits
Scan type : Progressive
Bits/(Pixel*Frame) : 0.052
Stream size : 141 MiB (85%)
Writing library : x264 core 152 r2851 ba24899
Encoding settings : cabac=1 / ref=5 / deblock=1:0:0 / analyse=0x3:0x113 / me=hex / subme=8 / psy=1 / psy_rd=1.00:0.00 / mixed_ref=1 / me_range=16 / chroma_me=1 / trellis=2 / 8x8dct=1 / cqm=0 / deadzone=21,11 / fast_pskip=1 / chroma_qp_offset=-2 / threads=6 / lookahead_threads=1 / sliced_threads=0 / nr=0 / decimate=1 / interlaced=0 / bluray_compat=0 / stitchable=1 / constrained_intra=0 / bframes=3 / b_pyramid=2 / b_adapt=1 / b_bias=0 / direct=3 / weightb=1 / open_gop=0 / weightp=2 / keyint=250 / keyint_min=25 / scenecut=40 / intra_refresh=0 / rc_lookahead=50 / rc=crf / mbtree=1 / crf=22.0 / qcomp=0.60 / qpmin=0 / qpmax=69 / qpstep=4 / ip_ratio=1.40 / aq=1:1.00
Default : Yes
Forced : No
Color range : Limited
Color primaries : BT.709
Transfer characteristics : BT.709
Matrix coefficients : BT.709

Audio
ID : 2
Format : AAC
Format/Info : Advanced Audio Codec
Format profile : LC
Codec ID : A_AAC
Duration : 26 min 0 s
Bit rate : 125 kb/s
Channel(s) : 2 channels
Channel positions : Front: L R
Sampling rate : 48.0 kHz
Frame rate : 46.875 FPS (1024 spf)
Compression mode : Lossy
Stream size : 23.3 MiB (14%)
Default : Yes
Forced : No[/b]

[url=https://www.sparrowpics.com/image/kbJ5y][img]https://www.sparrowpics.com/images/2017/07/04/kbJ5y.png[/img][/url]

[URL=https://tv.sparrowpics.com/image/Hg54O][IMG]https://tv.sparrowpics.com/images/2017/07/23/Hg54O.th.jpg[/IMG][/URL]

[URL=https://tv.sparrowpics.com/image/HgE1J][b]Click To View Screenshot[/b][/URL]

[URL=https://tv.sparrowpics.com/image/HgdzG][b]Click To View Screenshot[/b][/URL]

[URL=https://tv.sparrowpics.com/image/HgAHc][b]Click To View Screenshot[/b][/URL][/center] ]]>
Worlds.Deadliest.Drivers.S01E02.720p.HDTV.x264-NORiTE http://glodls.to/torrent.php?id=2644349 http://glodls.to/torrent.php?id=2644349 Sun, 23 Jul 2017 07:38:44 +0100 TV
[url=https://www.sparrowpics.com/image/kbFon][img]https://www.sparrowpics.com/images/2017/07/04/kbFon.png[/img][/url]

[b]Complete name : worlds.deadliest.drivers.s01e02.720p.hdtv-norite.mkv
Format : Matroska
Format version : Version 4 / Version 2
File size : 499 MiB
Duration : 26 min 1 s
Overall bit rate : 2 683 kb/s
Encoded date : UTC 2017-07-22 13:32:32
Writing application : mkvmerge v9.6.0 ('Slave To Your Mind') 64bit
Writing library : libebml v1.3.4 + libmatroska v1.4.5

Video
ID : 1
Format : AVC
Format/Info : Advanced Video Codec
Format profile : High@L4.1
Format settings, CABAC : Yes
Format settings, ReFrames : 5 frames
Codec ID : V_MPEG4/ISO/AVC
Duration : 26 min 1 s
Bit rate : 2 232 kb/s
Width : 1 280 pixels
Height : 720 pixels
Display aspect ratio : 16:9
Frame rate mode : Constant
Frame rate : 50.000 FPS
Color space : YUV
Chroma subsampling : 4:2:0
Bit depth : 8 bits
Scan type : Progressive
Bits/(Pixel*Frame) : 0.048
Stream size : 415 MiB (83%)
Writing library : x264 core 152 r2851 ba24899
Encoding settings : cabac=1 / ref=5 / deblock=1:0:0 / analyse=0x3:0x113 / me=hex / subme=8 / psy=1 / psy_rd=1.00:0.00 / mixed_ref=1 / me_range=16 / chroma_me=1 / trellis=2 / 8x8dct=1 / cqm=0 / deadzone=21,11 / fast_pskip=1 / chroma_qp_offset=-2 / threads=6 / lookahead_threads=1 / sliced_threads=0 / nr=0 / decimate=1 / interlaced=0 / bluray_compat=0 / stitchable=1 / constrained_intra=0 / bframes=3 / b_pyramid=2 / b_adapt=1 / b_bias=0 / direct=3 / weightb=1 / open_gop=0 / weightp=2 / keyint=250 / keyint_min=25 / scenecut=40 / intra_refresh=0 / rc_lookahead=50 / rc=crf / mbtree=1 / crf=21.0 / qcomp=0.60 / qpmin=0 / qpmax=69 / qpstep=4 / ip_ratio=1.40 / aq=1:1.00
Default : Yes
Forced : No
Color range : Limited
Color primaries : BT.709
Transfer characteristics : BT.709
Matrix coefficients : BT.709

Audio
ID : 2
Format : AC-3
Format/Info : Audio Coding 3
Format settings, Endianness : Big
Codec ID : A_AC3
Duration : 26 min 1 s
Bit rate mode : Constant
Bit rate : 448 kb/s
Channel(s) : 6 channels
Channel positions : Front: L C R, Side: L R, LFE
Sampling rate : 48.0 kHz
Frame rate : 31.250 FPS (1536 spf)
Bit depth : 16 bits
Compression mode : Lossy
Stream size : 83.4 MiB (17%)
Service kind : Complete Main
Default : Yes
Forced : No[/b]

[url=https://www.sparrowpics.com/image/kbJ5y][img]https://www.sparrowpics.com/images/2017/07/04/kbJ5y.png[/img][/url]

[URL=https://tv.sparrowpics.com/image/HqqBr][IMG]https://tv.sparrowpics.com/images/2017/07/23/HqqBr.th.jpg[/IMG][/URL]

[URL=https://tv.sparrowpics.com/image/Hq4Te][b]Click To View Screenshot[/b][/URL]

[URL=https://tv.sparrowpics.com/image/HqFDB][b]Click To View Screenshot[/b][/URL]

[URL=https://tv.sparrowpics.com/image/HqN2Y][b]Click To View Screenshot[/b][/URL][/center] ]]>